--> Touch 2014 ViE 720p HDTV AAC2.0 H.264-NTV
NetHD.org

Touch 2014 ViE 720p HDTV AAC2.0 H.264-NTV

Download Touch 2014 ViE 720p HDTV AAC2.0 H.264-NTV  Free
Small DescriptionFull Season 01-02
Basic Info
Uploaded byAnonymous at 2016-02-25 10:19:33
Action
Social
  • 2
Hot Meter
  • Views: 514
  • Hits: 56
  • Snatched: 27 x time(s)
  • Last Action: 2017-03-29 01:06:49
Peers0 Seeder | 0 Leecher


Touch 2014 ViE 720p HDTV AAC2.0 H.264-NTV  screenshots Touch 2014 ViE 720p HDTV AAC2.0 H.264-NTV  screenshots Touch 2014 ViE 720p HDTV AAC2.0 H.264-NTV  screenshots Touch 2014 ViE 720p HDTV AAC2.0 H.264-NTV  screenshots Touch 2014 ViE 720p HDTV AAC2.0 H.264-NTV  screenshots Touch 2014 ViE 720p HDTV AAC2.0 H.264-NTV  screenshots 

Format                      : MPEG-TS
File size                   : 2.13 GiB
Duration                    : 47mn 39s
Overall bit rate mode       : Variable
Overall bit rate            : 6 409 Kbps

Video
ID                          : 46 (0x2E)
Menu ID                     : 1 (0x1)
Format                      : AVC
Format/Info                 : Advanced Video Codec
Format profile              : High@L4
Format settings, CABAC      : Yes
Format settings, ReFrames   : 4 frames
Codec ID                    : 27
Duration                    : 47mn 39s
Bit rate                    : 5 834 Kbps
Width                       : 1 280 pixels
Height                      : 720 pixels
Display aspect ratio        : 16:9
Frame rate                  : 50.000 fps
Standard                    : Component
Color space                 : YUV
Chroma subsampling          : 4:2:0
Bit depth                   : 8 bits
Scan type                   : Progressive
Bits/(Pixel*Frame)          : 0.127
Stream size                 : 1.94 GiB (91%)
Color range                 : Limited
Color primaries             : BT.709
Transfer characteristics    : BT.709
Matrix coefficients         : BT.709

Audio #1
ID                          : 35 (0x23)
Menu ID                     : 1 (0x1)
Format                      : MPEG Audio
Format version              : Version 1
Format profile              : Layer 2
Codec ID                    : 3
Duration                    : 47mn 39s
Bit rate mode               : Constant
Bit rate                    : 128 Kbps
Channel(s)                  : 2 channels
Sampling rate               : 48.0 KHz
Compression mode            : Lossy
Stream size                 : 43.6 MiB (2%)
Language                    : English

Audio #2
ID                          : 45 (0x2D)
Menu ID                     : 1 (0x1)
Format                      : MPEG Audio
Format version              : Version 1
Format profile              : Layer 2
Codec ID                    : 3
Duration                    : 47mn 39s
Bit rate mode               : Constant
Bit rate                    : 128 Kbps
Channel(s)                  : 2 channels
Sampling rate               : 48.0 KHz
Compression mode            : Lossy
Stream size                 : 43.6 MiB (2%)
Language                    : English
TitleCham
Year2012
Genre
Rating7.4 (40,557 votes)
PlotWidower Martin Bohm's wife, Sarah Bohm, died in the twin towers on September 11, 2001. Previously a newspaper journalist, Martin since has worked a series of odd jobs in trying to make sense of his life, which includes caring for his son Jake, who was born on October 26, 2000. Jake was diagnosed as autistic, primarily because he has never uttered a word, and has an aversion to being touched. But Martin begins to believe that there is more to Jake's life than meets the eye. Jake, using a series…
Directorn/A
CastsKiefer Sutherland,David Mazouz,Gugu Mbatha-Raw,Lukas Haas,Saxon Sharbino…
Runtime43 min
Genres
Cham


Quantum Love 2014 mHD-720p Bluray AC3 x264-TRiMR 2010 720p BluRay DD5.1 x264-MARXThe Virgin Spring 1960 720p BluRay FLAC x264-CRiSCPitch S01E01 720p HDTV x264-AVSAashiqui 2 2013 720p BluRay DD5.1 x264-PositiveThe 33 2015 1080p BluRay DTS x264-VietHD

Only members can create comment.