--> First Man 2018 2160p UHD BluRay Remux HEVC DD5.1
NetHD.org

First Man 2018 2160p UHD BluRay Remux HEVC DD5.1

Download First Man 2018 2160p UHD BluRay Remux HEVC DD5.1 Free
Small DescriptionA Biopic on the life of the legendary American Astronaut Neil Armstrong from 1961-1969, on his journey to becoming the first human to walk the moon. Exploring the sacrifices and costs on the Nation and Neil himself, during one of the most dangerous missions in the history of space travel. Written by Matthew Villella
Basic Info
Uploaded byAnonymous at 2019-01-23 08:43:01
Action
Social
  • 3
Hot Meter
  • Views: 167
  • Hits: 10
  • Snatched: 4 x time(s)
  • Last Action: 2019-02-19 16:33:46
Peers2 Seeder | 0 Leecher


First Man 2018 2160p UHD BluRay Remux HEVC DD5.1 screenshots













First Man 2018 2160p UHD BluRay Remux HEVC DD5.1 screenshots


General
Unique ID                                : 111701079332988698920684528524832112458 (0x5408D868E897EE940ACF33E594DD7F4A)
Complete name                            : F:\MOVIE\First.Man.2018.2160p.UHD.BDREMUX.mkv
Format                                   : Matroska
Format version                           : Version 4 / Version 2
File size                                : 59.8 GiB
Duration                                 : 2 h 20 min
Overall bit rate mode                    : Variable
Overall bit rate                         : 60.7 Mb/s
Movie name                               : First Man (2018) from селезень
Encoded date                             : UTC 2019-01-19 00:33:25
Writing application                      : mkvmerge v29.0.0 ('Like It Or Not') 64-bit
Writing library                          : libebml v1.3.6 + libmatroska v1.4.9

Video
ID                                       : 1
Format                                   : HEVC
Format/Info                              : High Efficiency Video Coding
Commercial name                          : HDR10
Format profile                           : Main 10@L5.1@High
Codec ID                                 : V_MPEGH/ISO/HEVC
Duration                                 : 2 h 20 min
Bit rate                                 : 57.1 Mb/s
Width                                    : 3 840 pixels
Height                                   : 2 160 pixels
Display aspect ratio                     : 16:9
Frame rate mode                          : Constant
Frame rate                               : 23.976 (24000/1001) FPS
Color space                              : YUV
Chroma subsampling                       : 4:2:0 (Type 2)
Bit depth                                : 10 bits
Bits/(Pixel*Frame)                       : 0.287
Stream size                              : 56.3 GiB (94%)
Language                                 : English
Default                                  : Yes
Forced                                   : No
Color range                              : Limited
Color primaries                          : BT.2020
Transfer characteristics                 : PQ
Matrix coefficients                      : BT.2020 non-constant
Mastering display color primaries        : Display P3
Mastering display luminance              : min: 0.0001 cd/m2, max: 1000 cd/m2
Maximum Content Light Level              : 1000 cd/m2
Maximum Frame-Average Light Level        : 285 cd/m2

Audio #1
ID                                       : 2
Format                                   : AC-3
Format/Info                              : Audio Coding 3
Codec ID                                 : A_AC3
Duration                                 : 2 h 20 min
Bit rate mode                            : Constant
Bit rate                                 : 384 kb/s
Channel(s)                               : 6 channels
Channel positions                        : Front: L C R, Side: L R, LFE
Sampling rate                            : 48.0 kHz
Frame rate                               : 31.250 FPS (1536 SPF)
Bit depth                                : 16 bits
Compression mode                         : Lossy
Stream size                              : 387 MiB (1%)
Title                                    : iTunes
Language                                 : Russian
Service kind                             : Complete Main
Default                                  : Yes
Forced                                   : Yes

Audio #2
ID                                       : 3
Format                                   : TrueHD
Format profile                           : TrueHD+Atmos / TrueHD
Codec ID                                 : A_TRUEHD
Duration                                 : 2 h 20 min
Bit rate mode                            : Variable
Bit rate                                 : 2 679 kb/s
Maximum bit rate                         : 4 533 kb/s
Channel(s)                               : Object Based / 8 channels
Channel positions                        : Object Based / Front: L C R, Side: L R, Back: L R, LFE
Sampling rate                            :  / 48.0 kHz
Frame rate                               : 1 200.000 FPS (40 SPF)
Compression mode                         : Lossless
Stream size                              : 2.64 GiB (4%)
Title                                    : Original
Language                                 : English
Default                                  : No
Forced                                   : No

Audio #3
ID                                       : 4
Format                                   : AC-3
Format/Info                              : Audio Coding 3
Codec ID                                 : A_AC3
Duration                                 : 2 h 20 min
Bit rate mode                            : Constant
Bit rate                                 : 448 kb/s
Channel(s)                               : 6 channels
Channel positions                        : Front: L C R, Side: L R, LFE
Sampling rate                            : 48.0 kHz
Frame rate                               : 31.250 FPS (1536 SPF)
Bit depth                                : 16 bits
Compression mode                         : Lossy
Stream size                              : 452 MiB (1%)
Language                                 : English
Service kind                             : Complete Main
Default                                  : No
Forced                                   : No

Text #1
ID                                       : 5
Format                                   : UTF-8
Codec ID                                 : S_TEXT/UTF8
Codec ID/Info                            : UTF-8 Plain Text
Duration                                 : 2 h 5 min
Bit rate                                 : 1 b/s
Count of elements                        : 19
Stream size                              : 1.19 KiB (0%)
Title                                    : Forced
Language                                 : Russian
Default                                  : Yes
Forced                                   : Yes

Text #2
ID                                       : 6
Format                                   : UTF-8
Codec ID                                 : S_TEXT/UTF8
Codec ID/Info                            : UTF-8 Plain Text
Duration                                 : 2 h 12 min
Bit rate                                 : 78 b/s
Count of elements                        : 1564
Stream size                              : 76.7 KiB (0%)
Title                                    : Full
Language                                 : Russian
Default                                  : No
Forced                                   : No

Text #3
ID                                       : 7
Format                                   : UTF-8
Codec ID                                 : S_TEXT/UTF8
Codec ID/Info                            : UTF-8 Plain Text
Duration                                 : 2 h 10 min
Bit rate                                 : 48 b/s
Count of elements                        : 1376
Stream size                              : 46.9 KiB (0%)
Title                                    : Full
Language                                 : English
Default                                  : No
Forced                                   : No

Text #4
ID                                       : 8
Format                                   : UTF-8
Codec ID                                 : S_TEXT/UTF8
Codec ID/Info                            : UTF-8 Plain Text
Duration                                 : 2 h 12 min
Bit rate                                 : 55 b/s
Count of elements                        : 1596
Stream size                              : 53.9 KiB (0%)
Title                                    : SDH
Language                                 : English
Default                                  : No
Forced                                   : No

Menu
00:00:00.000                             : en:00:00:00.000
00:07:20.440                             : en:00:07:20.440
00:13:35.982                             : en:00:13:35.982
00:19:53.192                             : en:00:19:53.192
00:25:59.725                             : en:00:25:59.725
00:31:30.138                             : en:00:31:30.138
00:40:17.248                             : en:00:40:17.248
00:49:57.703                             : en:00:49:57.703
01:00:03.016                             : en:01:00:03.016
01:05:42.397                             : en:01:05:42.397
01:11:05.720                             : en:01:11:05.720
01:15:12.967                             : en:01:15:12.967
01:21:32.888                             : en:01:21:32.888
01:30:35.305                             : en:01:30:35.305
01:39:00.726                             : en:01:39:00.726
01:48:58.490                             : en:01:48:58.490
01:54:44.419                             : en:01:54:44.419
02:00:14.916                             : en:02:00:14.916
02:09:55.705                             : en:02:09:55.705
02:14:02.743                             : en:02:14:02.743













First Man 2018 2160p UHD BluRay Remux HEVC DD5.1 screenshots


First Man 2018 2160p UHD BluRay Remux HEVC DD5.1 screenshotsFirst Man 2018 2160p UHD BluRay Remux HEVC DD5.1 screenshotsFirst Man 2018 2160p UHD BluRay Remux HEVC DD5.1 screenshots
First Man 2018 2160p UHD BluRay Remux HEVC DD5.1 screenshotsFirst Man 2018 2160p UHD BluRay Remux HEVC DD5.1 screenshotsFirst Man 2018 2160p UHD BluRay Remux HEVC DD5.1 screenshots

TitleBuoc chân dâu tiên
Year2018
Genre
Rating7.4 (95,298 votes)
PlotA Biopic on the life of the legendary American Astronaut Neil Armstrong from 1961-1969, on his journey to becoming the first human to walk the moon. Exploring the sacrifices and costs on the Nation and Neil himself, during one of the most dangerous missions in the history of space travel. Written by Matthew Villella
DirectorDamien Chazelle
CastsRyan Gosling,Claire Foy,Jason Clarke,Kyle Chandler,Corey Stoll…
Runtime141 min
Genres
Buoc chân dâu tiên


Quantum Love 2014 mHD-720p Bluray AC3 x264-TRiMR 2010 720p BluRay DD5.1 x264-MARXThe Virgin Spring 1960 720p BluRay FLAC x264-CRiSCPitch S01E01 720p HDTV x264-AVSAashiqui 2 2013 720p BluRay DD5.1 x264-PositiveThe 33 2015 1080p BluRay DTS x264-VietHD

Only members can create comment.