--> Big Pacific S01 2160p UHD Blu-ray HEVC DTS-HD MA 2.0-PRECELL
NetHD.org

Big Pacific S01 2160p UHD Blu-ray HEVC DTS-HD MA 2.0-PRECELL

Download Big Pacific S01 2160p UHD Blu-ray HEVC DTS-HD MA 2.0-PRECELL Free
Small Description
Basic Info
Uploaded byAnonymous at 2019-02-11 09:49:02
Action
Social
  • 1
Hot Meter
  • Views: 66
  • Hits: 11
  • Snatched: 1 x time(s)
  • Last Action: 2019-02-18 12:26:23
Peers3 Seeder | 0 Leecher


Big Pacific S01 2160p UHD Blu-ray HEVC DTS-HD MA 2.0-PRECELL screenshots













Big Pacific S01 2160p UHD Blu-ray HEVC DTS-HD MA 2.0-PRECELL screenshots


DISC INFO:

Disc Title:     Big.Pacific.S01.2017.DOCU.COMPLETE.UHD.BLURAY-PRECELL
Disc Size:      96,840,831,001 bytes
Protection:     AACS2
BD-Java:        No
Extras:         Ultra HD, 50Hz Content
BDInfo:         0.5.8.7 (compatible layout created by DVDFab 10.2.0.1)

PLAYLIST REPORT:

Name:                   00002.MPLS  
Length:                 2:52:19.000 (h:m:s.ms)
Size:                   86,487,865,344 bytes
Total Bitrate:          66.92 Mbps

VIDEO:

Codec                   Bitrate             Description    
-----                   -------             -----------    
MPEG-H HEVC Video       59963 kbps          2160p / 25 fps / 16:9 / Main 10 Profile 5.1 High / 4:2:0 / 10 bits / SDR / BT.709 /

AUDIO:

Codec                           Language        Bitrate         Description    
-----                           --------        -------         -----------    
DTS-HD Master Audio             German          1568 kbps       2.0 / 48 kHz / 1568 kbps / 24-bit (DTS Core: 2.0 / 48 kHz / 1509 kbps / 24-bit)
DTS-HD Master Audio             English         2078 kbps       2.0 / 48 kHz / 2078 kbps / 24-bit (DTS Core: 2.0 / 48 kHz / 1509 kbps / 24-bit)

FILES:

Name            Time In         Length          Size            Total Bitrate  
----            -------         ------          ----            -------------  
00005.M2TS      0:00:00.000     0:43:04.400     21,637,337,088  66,978 kbps    
00006.M2TS      0:43:04.400     0:43:04.520     21,629,964,288  66,952 kbps    
00008.M2TS      1:26:08.920     0:43:04.560     21,629,558,784  66,950 kbps    
00009.M2TS      2:09:13.480     0:43:04.520     21,588,940,800  66,825 kbps    
00010.M2TS      2:52:18.000     0:00:01.000     2,064,384       16,515 kbps    













Big Pacific S01 2160p UHD Blu-ray HEVC DTS-HD MA 2.0-PRECELL screenshots


Big Pacific S01 2160p UHD Blu-ray HEVC DTS-HD MA 2.0-PRECELL screenshots
Big Pacific S01 2160p UHD Blu-ray HEVC DTS-HD MA 2.0-PRECELL screenshots
Big Pacific S01 2160p UHD Blu-ray HEVC DTS-HD MA 2.0-PRECELL screenshots

TitleBig Pacific
Year2017
GenreDocumentary
Rating8.5 (55 votes)
Plotn/A
DirectorJohn Cullum,Craig Meade,Andrew Murray
CastsDaniel Dae Kim,Dan Nachtrab
Runtimen/A
GenresDocumentary
Big Pacific


The Hunt 2015 S01 ViE mHD BluRay DD5.1 x264-TRiMUnder The Sea 3D 2009 ViE mHD BluRay DD5.1 x264-TRiM National Geographic Search For The Supersnake 720p HDTV x264-wpiYellowstone EP2 Summer HDTV 720p [V2T - cuongctcclh]Khám phá: Nghề đúc đồng Đại Bái HDTV AAC2.0 H.264-NTVPhim tài liệu: Biết đâu nguồn cội 720p HDTV AAC2.0 H.264-NTV

Only members can create comment.