--> Batman: Gotham Knight 2008 1080p BluRay DD5.1 x264-HD1080
NetHD.org

Batman: Gotham Knight 2008 1080p BluRay DD5.1 x264-HD1080

Download Batman: Gotham Knight 2008 1080p BluRay DD5.1 x264-HD1080 
Small DescriptionIn this 6-story anthology collection, Batman faces new villains and old ones in a time-line after Batman Begins. In "Have I Got A Story For You", 3 kids tell wildly different stories about Batman during a fight through Gotham. "Crossfire" focuses on two policemen who end up getting in the middle of a crime battle. "Field Test" has Lucius Fox creating a new technology for Batman, but is it too powerful? "In Darkness Dwells" features Killer Croc and Scarecrow, who have kidnapped a priest.
Basic Info
Uploaded byAnonymous at 2018-07-25 10:57:21
Action
Social
  • 1
Hot Meter
  • Views: 291
  • Hits: 16
  • Snatched: 5 x time(s)
  • Last Action: 2019-02-18 12:12:19
Peers1 Seeder | 0 Leecher


Batman: Gotham Knight 2008 1080p BluRay DD5.1 x264-HD1080 screenshots













Batman: Gotham Knight 2008 1080p BluRay DD5.1 x264-HD1080 screenshots


Format                                   : Matroska
Format version                           : Version 1
File size                                : 4.37 GiB
Duration                                 : 1 h 25 min
Overall bit rate                         : 7 286 kb/s
Encoded date                             : UTC 2008-07-06 13:51:08
Writing application                      : mkvmerge v2.2.0 ('Turn It On Again') built on Mar  4 2008 12:58:26
Writing library                          : libebml v0.7.7 + libmatroska v0.8.1

Video
ID                                       : 1
Format                                   : AVC
Format/Info                              : Advanced Video Codec
Format profile                           : High@L4.1
Format settings                          : CABAC / 5 Ref Frames
Format settings, CABAC                   : Yes
Format settings, RefFrames               : 5 frames
Codec ID                                 : V_MPEG4/ISO/AVC
Duration                                 : 1 h 25 min
Bit rate                                 : 6 501 kb/s
Nominal bit rate                         : 7 596 kb/s
Width                                    : 1 920 pixels
Height                                   : 1 080 pixels
Display aspect ratio                     : 16:9
Frame rate mode                          : Constant
Frame rate                               : 23.976 FPS
Color space                              : YUV
Chroma subsampling                       : 4:2:0
Bit depth                                : 8 bits
Scan type                                : Progressive
Bits/(Pixel*Frame)                       : 0.131
Stream size                              : 3.90 GiB (89%)
Writing library                          : x264 core 59 r859M ce13bb6
Encoding settings                        : cabac=1 / ref=5 / deblock=1:0:0 / analyse=0x3:0x113 / me=umh / subme=7 / me-prepass=0 / brdo=1 / mixed_ref=1 / me_range=16 / chroma_me=1 / trellis=1 / 8x8dct=1 / cqm=0 / deadzone=21,11 / chroma_qp_offset=0 / threads=6 / nr=0 / decimate=1 / mbaff=0 / fgo=0 / bframes=3 / b_pyramid=1 / b_adapt=1 / b_bias=0 / direct=1 / wpredb=1 / bime=1 / keyint=250 / keyint_min=25 / scenecut=40(pre) / rc=2pass / bitrate=7596 / ratetol=1.0 / rceq='blurCplx^(1-qComp)' / qcomp=1.00 / qpmin=10 / qpmax=51 / qpstep=4 / cplxblur=20.0 / qblur=0.5 / ip_ratio=1.40 / pb_ratio=1.30 / aq=2:1.00
Default                                  : Yes
Forced                                   : No

Audio
ID                                       : 3
Format                                   : AC-3
Format/Info                              : Audio Coding 3
Codec ID                                 : A_AC3
Duration                                 : 1 h 25 min
Bit rate mode                            : Constant
Bit rate                                 : 640 kb/s
Channel(s)                               : 6 channels
Channel positions                        : Front: L C R, Side: L R, LFE
Sampling rate                            : 48.0 kHz
Frame rate                               : 31.250 FPS (1536 SPF)
Bit depth                                : 16 bits
Compression mode                         : Lossy
Stream size                              : 393 MiB (9%)
Service kind                             : Complete Main
Default                                  : Yes
Forced                                   : No

Text
ID                                       : 2
Format                                   : UTF-8
Codec ID                                 : S_TEXT/UTF8
Codec ID/Info                            : UTF-8 Plain Text
Default                                  : Yes
Forced                                   : No













Batman: Gotham Knight 2008 1080p BluRay DD5.1 x264-HD1080 screenshots


Batman: Gotham Knight 2008 1080p BluRay DD5.1 x264-HD1080 screenshots
Batman: Gotham Knight 2008 1080p BluRay DD5.1 x264-HD1080 screenshots
Batman: Gotham Knight 2008 1080p BluRay DD5.1 x264-HD1080 screenshots
Batman: Gotham Knight 2008 1080p BluRay DD5.1 x264-HD1080 screenshots
Batman: Gotham Knight 2008 1080p BluRay DD5.1 x264-HD1080 screenshots
Batman: Gotham Knight 2008 1080p BluRay DD5.1 x264-HD1080 screenshots

TitleBatman: Gotham Knight
Year2008
Genre
Rating6.8 (24,016 votes)
PlotIn this 6-story anthology collection, Batman faces new villains and old ones in a time-line after Batman Begins. In "Have I Got A Story For You", 3 kids tell wildly different stories about Batman during a fight through Gotham. "Crossfire" focuses on two policemen who end up getting in the middle of a crime battle. "Field Test" has Lucius Fox creating a new technology for Batman, but is it too powerful? "In Darkness Dwells" features Killer Croc and Scarecrow, who have kidnapped a priest.
DirectorYasuhiro Aoki,Futoshi Higashide,Toshiyuki Kubooka
CastsKevin Conroy,Jason Marsden,Scott Menville,George Newbern,Corey Padnos…
Runtime75 min
Genres
Batman: Gotham Knight


Dragon Ball Kai E40- 41 ViE 1080p BluRay FLAC 2.0 x264Rick and Morty S01 720p BluRay DD5.1 x264-NTbScooby-Doo! And Kiss: Rock and Roll Mystery 2015 1080p WEB-DL DD2.0 x264 Rock Dog 2016 ViE 1080p Blu-ray AVC DTS-HD MA 5.1-NetBDConan Season 7The Little Prince 2015 1080p BluRay DD5.1 x264-VietHD

Only members can create comment.